Info

Twelve Monkeys


8.0
IMDB: 8.0/10 484,519 votes

Durata: 129 min

Released:

Anno: 05 Jan 1996

Direttore:

Premi: Nominated for 2 Oscars. Another 9 wins & 18 nominations.

Budget: 29500000$

Incassi: 168840000$

Stato: Released

Paese: USA

Tagline: Il futuro è storia.

Cast:




Nel 2035 James Cole è un detenuto che, con la promessa della grazia, viene inviato nel passato per indagare sui fatti che hanno portato all’estinzione del 99% dell’umanità e costretto i sopravvissuti a vivere nel sottosuolo per sfuggire al contagio di un virus letale. I detenuti sono obbligati a salire in superficie con speciali tute ermetiche, correndo il rischio di venire contagiati a loro volta, per raccogliere le prove riguardo alla responsabilità di una tale catastrofe. I capi di queste comunità sotterranee sembrano essere degli scienziati che fanno di tutto per poter, un giorno, mettere le mani sul virus originale, che intanto è mutato, per creare un antidoto e riconquistare la superficie.

Tutte le prove portano a un sedicente gruppo ecologista, l’esercito delle 12 scimmie, che avrebbe diffuso il contagio per liberare la Terra da quel cancro che ritengono siano gli esseri umani. In particolare, un murale apparso pochi giorni prima della tragedia porta la scritta “l’abbiamo fatto noi” (“we did it”)………….

Trailer


Upload on Youtube

Info File

Video
ID : 0
Format : MPEG-4 Visual
Format profile : [email protected]
Format settings, BVOP : Yes
Format settings, QPel : No
Format settings, GMC : No warppoints
Format settings, Matrix : Default (H.263)
Codec ID : XVID
Codec ID/Hint : XviD
Duration : 2h 9mn
Bit rate : 1 500 Kbps
Width : 720 pixels
Height : 384 pixels
Display aspect ratio : 1.875
Frame rate : 23.976 fps
Color space : YUV
Chroma subsampling : 4:2:0
Bit depth : 8 bits
Scan type : Progressive
Bits/(Pixel*Frame) : 0.226
Stream size : 1.36 GiB (62%)

Audio #1
ID : 1
Format : AC-3
Format/Info : Audio Coding 3
Mode extension : CM (complete main)
Codec ID : 2000
Duration : 2h 9mn
Bit rate mode : Constant
Bit rate : 448 Kbps
Channel(s) : 6 channels
Channel positions : Front: L C R, Side: L R, LFE
Sampling rate : 48.0 KHz
Bit depth : 16 bits
Stream size : 415 MiB (19%)
Alignment : Split accross interleaves
Interleave, duration : 42 ms (1.00 video frame)
Interleave, preload duration : 500 ms

Trackers

http://tracker.istole.it:80/
http://tracker.publicbt.com:80/
http://tracker.tntvillage.scambioetico.org:2710/scrape
http://open.demonii.com:1337/scrape
http://tracker.coppersurfer.tk:6969/scrape
http://tracker.openbittorrent.com/scrape

Torrent correlati

Torrent Name Dimm. Creato Seed Leech
1.31 Gb 2 anni fa 1 0
696.46 Mb 2 anni fa 1 0
1.36 Gb 2 anni fa 2 0
1.45 Gb 2 anni fa 0 0
1.37 Gb 2 anni fa 8 2